Koniec wojny na megapiksele? Test aparatu Samsunga Galaxy S III

Jakub Bereziewicz Android 2012-05-05

Samsung Galaxy S III

Można już chyba powiedzieć oficjalnie, że „wojna na megapiksele” minęła. Jej koniec prawdopodobnie zwieńczył właśnie Samsung Galaxy S III – ku zdziwieniu wszystkim. Zastosowano w nim matrycę tę samej wielkości co w jego poprzedniku. Za pomocą głównej kamery możemy wykonywać zdjęcia o rozdzielczości 8Mpx (3264 x 2448px) i nagrywać filmy w jakości Full HD (1920 x 1080). Podczas konferencji prasowej Samsung jakoś specjalnie nie chwalił się, że jego najnowszy produkt wykonuje bardzo dobre jakościowo zdjęcia. A jak za chwilę zobaczycie – chyba powinien.

Poniżej przedstawiamy pięć zdjęć wykonanych właśnie Samsungiem Galaxy S III. Ostatni kadr uwieczniony został dzięki frontowej kamerze. Po kliknięciu w fotografię można ją zobaczyć w pełnej rozdzielczości.

Picture from samsung i9300

Picture from samsung i9300

Picture from samsung i9300

Picture from samsung i9300

Picture from samsung i9300

Poniżej podobne kadry wykonane za pomocą jego poprzednika – Samsunga Galaxy S II.

Picture from samsung i9100

Picture from samsung i9100

Porównajmy te ujęcia.

samsung i9300 vs i9100

samsung i9300 vs i9100

Nasz komentarz jest tu chyba zbędny – sami oceńcie.
Zdjęcia wykonane najmłodszym dzieckiem Samsunga mimo tej samej rozdzielczości są znacznie lepszej jakości niż tez z SGS2.

Sprawdźmy teraz jakość nagrywanych filmów przez Galaxy S III. Poniżej zamieszczamy wideo wykonane właśnie dzięki modelowi i9300.


 
Poniżej te same ujęcia wykonane za pomocą jego poprzednika – i9100.

Tutaj również widać znaczną poprawę. Poniżej zamieszczamy bardziej specjalistyczne informacje na temat nagranego filmu z SGS3. 

 

Format                         : MPEG-4
Format profile : Base Media
Codec ID : isom
File size : 32.0 MiB
Duration : 15s 671ms
Overall bit rate : 17.1 Mbps
Encoded date : UTC 2012-05-03 19:45:01
Tagged date : UTC 2012-05-03 19:45:01

 

Video
ID : 1
Format : AVC
Format/Info : Advanced Video Codec
Format profile                 : High@L4.0 
Format settings, CABAC         : Yes
Format settings, ReFrames : 1 frame
Format settings, GOP : M=1, N=30
Codec ID : avc1
Codec ID/Info : Advanced Video Coding
Duration : 15s 671ms
Bit rate : 17.0 Mbps
Width : 1 920 pixels
Height : 1 080 pixels
Display aspect ratio : 16:9
Frame rate mode : Variable
Frame rate : 30.000 fps
Minimum frame rate : 18.773 fps
Maximum frame rate : 37.144 fps
Color space : YUV
Chroma subsampling : 4:2:0
Bit depth : 8 bits
Scan type : Progressive
Bits/(Pixel*Frame) : 0.274
Stream size : 31.8 MiB (99%)
Title : VideoHandle
Language : English
Encoded date : UTC 2012-05-03 19:45:01
Tagged date : UTC 2012-05-03 19:45:01

Audio
ID : 2
Format : AAC
Format/Info : Advanced Audio Codec
Format profile : LC
Codec ID : 40
Duration : 15s 659ms
Source duration : 15s 993ms
Bit rate mode : Constant
Bit rate : 128 Kbps
Channel(s) : 2 channels
Channel positions : Front: L R
Sampling rate : 48.0 KHz
Compression mode : Lossy
Stream size : 236 KiB (1%)
Source stream size : 241 KiB
Title : SoundHandle
Language : English
Encoded date : UTC 2012-05-03 19:45:01
Tagged date : UTC 2012-05-03 19:45:01

Poniżej kolejny film. Tym razem prezentujemy Wam najważniejsze możliwości fotograficzne Samsunga Galaxy S III o których pisaliśmy tutaj.

Jak widać Samsung zrobił niesamowity postęp jeśli chodzi o jakość zdjęć czy filmów. Znacznej poprawie uległo również oprogramowanie.
Może ten SGS3 wcale nie jest taki zły jak nam się wszystkim na początku wydawało…?

 
 





x